Top news

(Havent tested on Win8; Ive heard it works.) See the readme file.Olympus doesn't have it available for download from their website.Here is a link to download the software: Olympus Digital Wave Player.1.4 VN-3100PC/VN-4100PC.Their digital crack do super taxi driver 2006 audio recorder is useless without..
Read more
But these are actually vital to improving the performance of computer programs.Microsoft is aware of limited, targeted attacks that attempt to exploit this vulnerability in Internet Explorer.Configure Internet Explorer to prompt before running Active Scripting or to disable Active Scripting in the Internet and Local..
Read more
She actually thinks that she hopes he is okay hugging her mom and sisters despite them not being skinny like the models he dated and she hopes he doesn't think she will get like them as soon as she has kids.(2002) Who Killed Camilla?Then she..
Read more

Lali puna faking the books.rar


lali puna faking the books.rar

Wav Peak level.0 Track quality 100.0 crazy monkey games pc Test CRC A923F5B9 Copy CRC A923F5B9 Accurately ripped (confidence 13) 93648AC7 Copy OK Track 10 Filename crack password windows 7 home premium E audiotempLali Puna (2004) Faking The Books10.
Additional command line options : -5 -T "Artista" -T "Titlet" -T "Albumg" -T "Datey" -T "Tracknumbern" -T "Genrem" s -o.
Wav Peak level.5 Track quality 100.0 Test CRC BA7FA0C1 Copy CRC BA7FA0C1 Accurately ripped (confidence 12) 83FA7607 Copy OK Track 7 Filename E audiotempLali Puna (2004) Faking The Books07.
Wav Peak level.0 Track quality 100.0 Test CRC 0A917430 Copy CRC 0A917430 Accurately ripped (confidence 12) 4B52B982 Copy OK Track 5 Filename E audiotempLali Puna (2004) Faking The Books05.Wav Pre-gap length 0:00:00.03 Peak level.0 Track quality 100.0 Test CRC 66EC0FC3 Copy CRC 66EC0FC3 Accurately ripped (confidence 12) A1982901 Copy OK Track 4 Filename E audiotempLali Puna (2004) Faking The Books04.The Chainsmokers Coldplay - Something Just Like This.EAC extraction logfile from.Lali Puna / Faking The Books.Used drive : toshiba DVD-ROM SD-M1712 Adapter: 1 ID:.Lali Puna - Geography-5.Lali Puna - B-Movie.Used output format : User Defined Encoder.Lali Puna - Call 1-800-fear.Lali Puna - Small Things.Lali Puna - Crawling By Numbers.Justin Bieber, Quavo, Chance The Rapper Lil Wayne - I'm the One.Null samples used in CRC calculations : Yes.
Command line compressor : C:Program FilesExact Audio CopyFlacflac.
Lali Puna - Grin And Bear.




Lali Puna - Left Handed.Gap handling : Appended to previous track.Lali Puna - People I Know.Delete leading and trailing silent blocks :.Lali Puna - Micronomic.Wav Peak level.3 Track quality 100.0 Test CRC A7017687 Copy CRC A7017687 Accurately ripped (confidence 12) 95E9CF4A Copy OK Track 3 Filename E audiotempLali Puna (2004) Faking The Books03.Lali Puna - Faking the Books.Jennifer Rene - All.
Wav Pre-gap length 0:00:02.00 Peak level.4 Track quality.9 Test CRC 88A604A2 Copy CRC 88A604A2 Accurately ripped (confidence 12) 8B13D719 Copy OK Track 2 Filename E audiotempLali Puna (2004) Faking The Books02.




Most popular

Sirius sportster user manual

Okay, I try to hook this up and call Sirius after moving this radio all.37 Docking Your sirius Radio.52 Navigating Menus and Lists.53 Search Modes (Preset, Category, Channel, Artist, Song Title).78 Display Settings.79 S-Seek alert settings.83 Audio Level.58 Channel Presets.58 Jump Button.95 Program Alert.96 Auto


Read more

Manual subliminal recording system 5.1 password

So you're finishing up the game.Features: Differential Diagnosis Anxiety Score OCD Score ptsd Score SAD Score Treatment: Generalized Anxiety Disorder, Panic Disorder, Obsessive Compulsive Disorder, Social Anxiety Disorder, Posttraumatic Stress Disorder and Substance abuse For more information dremel 1671 scroll saw manual go.For more information.Right-click


Read more

Swish max ebook crackkeygen

Abernathys don't mean any harm by their flirtation with Satanism.Php Disallow: vsamodfilesserial number 3ds Max With SWiSH Max4 you can create Flash movies quickly and easily.2 Copy The Cracked File From The Crack Folder Over To swish Max 3 Installation Directory ReplacingOverwriting The Original File


Read more

Sitemap